#TITLE:Mezame;
#SUBTITLE:- Mai-HiME;
#ARTIST:Kajiura Yuki;
#TITLETRANSLIT:;
#SUBTITLETRANSLIT:;
#ARTISTTRANSLIT:Kajiura Yuki;
#CREDIT:True Ancestor (^_^);
#BANNER:mezamebanner.jpg;
#BACKGROUND:mezame1.jpg;
#LYRICSPATH:;
#CDTITLE:trueancestor.png;
#MUSIC:Mezame.mp3;
#OFFSET:0.000;
#SAMPLESTART:107.440;
#SAMPLELENGTH:12.000;
#SELECTABLE:YES;
#BPMS:0.000=160.020,159.000=160.020,497.250=80.010,529.250=160.020;
#STOPS:;
#BGCHANGES:;
// cache tags:
#FIRSTBEAT:1.500;
#LASTBEAT:675.500;
#SONGFILENAME:Songs/nhac/[TrueAncestor] Mezame -Mai-HiME/Mezame.sm;
#HASMUSIC:1;
#HASBANNER:1;
#MUSICLENGTH:271.417;
// end cache tags

//---------------dance-single - ----------------
#NOTES:
     dance-single:
     :
     Challenge:
     13:
     1.000,1.000,1.000,0.192,1.000,1681.000,296.000,52.000,0.000,0.000:









0000
0000
0000
0000
0000
0000
0000
0000
0000
0000
0000
0000
0000
0000
0000
1010
0000
0000
0000
0000
1100
0000
0000
0000
,
0000
0000
1000
0000
0000
0000
0000
0000
0001
0000
0000
0000
0000
0000
0000
1000
0000
0000
0000
0000
0000
0000
0001
0000
0000
0000
0000
0000
1000
0000
0000
0000
0000
0001
0000
0000
0000
0000
1000
0000
0000
0000
0000
0000
0000
0000
0011
0000
0000
0000
0000
0000
0000
0000
0000
0000
0000
1001
0000
0000
0000
0000
0000
0000
,
0000
0000
0000
0000
0000
0000
0000
0000
0000
0000
0000
0000
0000
0000
0000
0000
0000
0000
0000
0000
0000
0000
0000
0000
0000
0000
0000
0000
0000
0000
0000
0000
0000
0000
0000
0000
0000
0000
0000
0000
0000
0000
0000
0000
0000
0000
0000
0000
0000
0000
0000
0000
0000
0000
0000
0000
0000
0000
0000
0000
1000
0000
0000
0010
,
0000
0000
1000
0000
0000
0010
0000
0000
0000
0000
0000
0100
0000
0000
0000
0000
0000
0000
0000
0000
0000
0000
0000
0000
0000
0010
0000
0000
0000
0000
0000
0000
0000
0000
0001
0000
0000
0000
0000
0000
0000
0000
0000
0000
0000
0000
0110
0000
0000
0000
0000
0000
0000
0000
0000
0000
0011
0000
0000
0000
0000
0000
0000
0000
,
0000
0000
0000
1100
0000
0000
0000
0000
0000
0000
0000
0000
0011
0000
0000
0000
0000
0000
0000
0000
0000
0000
0000
0000
0000
0000
0000
0000
0000
0000
0000
0000
0000
0000
0000
0000
0000
0000
0000
0000
0000
0000
0000
0000
0000
0000
0000
0000
0000
0000
0000
0000
0000
0000
0000
0000
0000
0000
0000
0000
0000
0000
0000
0000
,
0000
0000
0000
0000
0000
0000
0000
0100
0000
2100
0000
0000
0000
0000
0000
0000
0000
0000
0000
0000
0000
0000
0000
0000
0000
0000
0000
0002
0000
0000
0000
0000
0000
0000
0000
0000
0000
0000
0000
0000
0000
0000
3000
0000
0000
0000
0000
0000
,
2000
0000
0000
0000
0000
0000
0000
0000
0000
0000
0000
0000
0000
3003
0000
0220
,
0000
0000
0000
0030
0002
0000
0000
0000
,
0000
0000
0000
0000
,
0000
0000
0000
0000
,
0000
0000
0000
0000
0000
0000
0000
0000
0000
0000
0000
0303
0000
0000
0000
0100
,
0000
1000
0000
0000
0000
0100
0000
0000
0000
0010
0000
0000
0000
0001
0000
0000
0000
1000
0000
0000
0000
0101
0000
0000
0000
0000
0000
0000
0000
0000
0000
0000
0000
0010
0000
0000
0000
0000
0000
0010
0000
0000
0000
1000
0000
0000
0000
0001
,
0000
0000
0000
0100
0000
0000
0000
0000
0000
0000
0000
0000
0000
0101
0000
0000
0000
0000
0000
0000
1100
0000
0000
0000
0000
0000
0010
0000
0000
1000
0000
0000
0000
0001
0000
0000
1000
0000
0000
0001
0000
1000
0000
0000
0000
0000
0000
0000
,
0000
0000
0000
0000
0000
0000
0001
0000
0000
0000
1000
0000
0000
0000
0000
0001
0000
0000
0000
0000
1000
0000
0000
0000
0000
0000
0000
0000
0000
0000
1000
0000
0000
1000
0000
0000
1000
0000
0000
0100
0000
0000
0100
0000
0000
0100
0000
0000
,
0010
0010
0010
0001
0001
0001
1000
1000
1000
0100
0100
0100
1000
1000
1000
0100
,
1001
0000
0000
0000
1000
0000
0000
0000
0000
0220
0000
0000
0000
0000
0000
0000
0000
0000
0000
0000
0000
0000
0000
0000
,
0000
0330
2000
0000
0000
0000
0000
0000
0002
0000
0000
0000
0000
0000
0000
0000
,
0000
0000
0000
0000
0000
0000
3003
0000
0000
0000
0000
0000
0000
0000
1100
0000
0000
0000
0000
0000
0000
0000
1010
0000
0000
0000
0000
0000
0000
0101
0000
0000
0000
0000
0000
0000
0010
0000
0000
0000
0000
0001
0000
0000
0000
0000
0010
0000
,
0000
0000
0100
0000
0000
0000
1000
0000
0000
0100
0000
0000
0010
0000
0000
0001
0000
0000
0010
0000
0000
0100
0000
0000
1000
0000
0000
0100
0000
0000
0010
0000
0000
0001
0000
0000
0010
0000
0000
0100
0000
0000
1000
0000
0000
0100
0000
0000
,
0010
0100
0010
0100
1000
0100
1000
0100
1000
0100
0010
0100
0001
0100
0001
0100
,
0010
0000
0000
0000
0000
0000
0000
1100
0000
0000
0000
0000
0000
0000
0000
0000
0000
0000
0000
0000
1100
0000
0000
0000
0000
0000
0000
0000
0000
0000
0000
0000
0000
0000
0101
0000
0000
0000
0000
0000
0000
0000
0000
0000
0000
0000
0000
0110
,
0000
0000
0000
0000
0000
0000
0000
0000
0000
0000
0000
0000
1001
0000
0000
0000
0000
0000
0000
0000
0000
0000
0000
0000
0000
0000
1100
0000
0000
0000
0000
0000
0000
0000
0000
0000
0000
0000
0000
0000
0000
0011
0000
0000
0000
0000
0000
0000
,
0000
0000
0000
0000
0000
0000
0000
0011
0000
0000
0000
0000
0000
0000
0000
0000
0110
0000
0000
0000
0000
0000
0000
0000
1010
0000
0000
0000
0000
0000
0000
0000
0000
0000
0000
0000
0000
1001
0000
0000
0000
0000
0000
0000
0000
0000
0000
0000
,
0000
0101
0000
0000
0000
2002
0000
0000
0000
0000
0000
0000
0000
0000
0000
0000
,
0000
0000
0000
0000
0000
0000
0000
0000
0000
0000
0000
0000
0000
0000
0000
0000
3000
0000
0000
0000
0000
0000
0000
0000
0000
1000
0003
0000
0000
0000
0000
0000
0000
0000
0000
1100
0000
0000
0000
0000
0000
0000
0110
0000
0000
0000
0000
0000
,
0011
0000
0000
0000
0000
0000
0000
0000
0000
0000
0000
0000
0000
0000
0000
0000
0000
0000
0000
0000
1000
0000
0000
0000
0000
0000
0000
0000
0000
0000
0100
0000
0000
0000
0000
0000
0000
0000
0000
0000
0000
0000
0010
0000
0000
0000
0000
0000
0000
0000
0000
0000
0000
0000
0100
0000
0000
0000
0000
0000
0000
0000
0000
0000
0000
0000
0010
0000
0000
0000
0000
0000
0000
0000
0000
0000
0000
0000
0100
0000
0000
0000
0000
0000
0000
0000
0000
0000
0000
0000
0010
0000
0000
0000
0000
0000
0000
0000
0000
0000
0000
0000
0100
0000
0000
0000
0000
0000
0000
0000
0000
0000
0000
0000
0010
0000
0000
0000
0000
0000
0000
0000
0000
0000
0000
0000
0100
0000
0000
0000
0000
0000
0000
0000
0000
0000
0000
0000
1000
0000
0000
0000
0000
0000
0000
0000
0000
0000
0000
0000
0001
0000
0000
0000
0000
0000
0000
0000
0000
0000
0000
0000
0100
0000
0000
0000
0000
0000
0000
0000
0000
0000
0000
0000
0001
0000
0000
0000
0000
0000
0000
0000
0000
0000
0000
0000
0010
0000
0000
0000
0000
0000
,
0000
0000
0000
0000
0000
0000
0001
0000
0000
0000
0000
0000
0000
0000
0000
0000
0000
0000
0100
0000
0000
0000
0000
0000
0000
0000
0000
0000
0000
0000
0001
0000
0000
0000
0000
0000
0000
0000
0000
0000
0000
0000
0100
0000
0000
0000
0000
0000
0000
0000
0000
0000
0000
0000
1000
0000
0000
0000
0000
0000
0000
0000
0000
0000
0000
0000
0000
0000
0000
0000
0000
0000
0000
0000
0000
0000
0000
0000
1000
0000
0000
0000
0000
0000
0000
0000
0000
0000
0000
0000
0000
0000
0000
0000
0000
0000
0000
0000
0000
0000
0000
0000
1000
0000
0000
0000
0000
0000
0000
0000
0000
0000
0000
0000
0000
0000
0000
0000
0000
0000
0000
0000
0000
0000
0000
0000
0000
0000
0000
0000
0000
0000
0100
0000
0000
0000
0000
0000
0000
0000
0000
0000
0000
0000
0000
0000
0000
0000
0000
0000
0000
0000
0000
0000
0000
0000
0000
0000
0000
0000
0000
0000
0000
0000
0110
0000
0000
0000
0000
0000
0000
0000
0000
0000
0000
0000
0000
0000
0000
0000
0000
0000
0000
0000
0000
0000
0000
0000
0000
0000
0000
0000
,
0000
0000
0000
0000
0000
1100
0000
0000
0000
0000
0000
0000
0000
0000
0000
0011
0000
0000
0000
0000
0000
0000
0000
0000
0000
0000
0000
1100
0000
0000
0000
0000
0000
0000
0000
0000
0000
0000
0000
0000
0000
0000
1001
0000
0000
0000
0000
0000
,
0000
0000
0000
0000
0000
0000
0000
0000
0000
1010
0000
0000
0000
0000
0000
0000
0000
0000
0000
0000
0000
0000
0000
0000
0000
0000
0011
0000
0000
0000
0000
0000
0000
0000
0000
0000
0000
0000
0000
0000
0000
0000
0000
0000
0000
0000
0000
0101
,
0000
0000
0000
0000
0000
0000
0000
0000
0000
0000
0000
0000
0000
1000
0000
0002
0000
2000
0000
0000
0000
0000
0000
0000
0000
0000
0000
0000
0000
0000
0000
0000
0000
0000
0000
0000
0000
0000
0000
0000
0000
0000
0000
0000
0000
0000
0000
0000
,
0000
0000
0000
0000
,
0000
0000
0000
0000
,
0000
0000
3003
0000
0000
0110
0000
1000
0000
0110
0000
0001
0000
0110
0000
1000
,
0000
0110
0000
0001
0000
0110
0000
1000
0000
1100
0000
0100
0000
0011
0000
0010
,
0000
0110
0000
0010
0000
0101
0000
0100
0000
1010
0000
0100
0000
1010
0000
1000
,
0000
0101
0000
0001
0000
0110
0000
0010
0000
1001
0000
0100
0000
1001
0000
0010
,
0000
0110
0000
0100
0000
1001
0000
0001
0000
1100
0000
1000
0000
0101
0000
0100
,
0000
0011
0000
0100
0000
1100
0000
0100
0000
1100
0000
0100
0000
0101
0000
0100
,
0000
0101
0000
0010
0000
0011
0000
0010
0000
0011
0000
1000
0000
1100
0000
0001
,
0000
0000
0000
0110
0000
0000
0000
0000
0000
1000
0000
0000
0000
0000
0000
0220
0000
0000
0000
0000
0000
0000
0000
0000
0000
0000
0000
0000
0000
0000
0000
0000
0000
0000
0330
0000
0000
0000
0000
0220
0000
0000
0000
0000
0000
0000
0000
0000
,
0000
0000
0000
0000
0000
0000
0000
0000
0000
0000
0000
0330
0000
0000
0000
0110
0000
0000
0000
0000
0000
1000
0000
0000
0000
0000
0000
0101
0000
0000
0000
0000
0000
1000
0000
0000
0000
0000
0000
1000
0000
0000
0100
0000
0000
0010
0000
0000
,
0001
1000
0100
0010
0000
1100
0000
0001
0000
1010
0000
0001
0000
1000
0100
0010
,
0001
1000
0100
0010
0000
0101
0000
1000
0000
0101
0000
0100
0000
0010
0001
0010
,
0100
0001
0100
0010
0000
1100
0000
0001
0000
0110
0000
0010
0000
1000
0001
1000
,
0001
1000
0001
1000
0000
0101
0000
0010
0000
1100
0000
0010
0000
0100
0010
0100
,
0010
1000
0001
1000
0000
0110
0000
0001
0000
0110
0000
0001
0000
1000
0010
1000
,
0010
0100
1000
0001
0000
1100
0000
0001
0000
0110
0000
1000
0000
0010
0001
0010
,
0100
1000
0001
0100
0000
0011
0000
0001
0000
1100
0000
1000
0000
0010
1000
0010
,
1000
0010
1000
0010
0000
0101
0000
0010
0000
1100
0000
0001
0000
0100
0001
0100
,
0001
1000
0010
1000
0000
0110
0000
0010
0000
1001
0000
0010
0000
0100
0001
1000
,
0001
0100
0010
0100
0000
1100
0000
0001
0000
1010
0000
0010
0000
1000
0100
0010
,
0100
0010
0001
0010
0000
1100
0000
0001
0000
0011
0000
1000
0000
0100
0010
0100
,
0001
0100
1000
0010
0000
0110
0000
0010
0000
1001
0000
1000
0000
1000
0100
0010
,
0001
0010
1000
0001
0000
1100
0000
0010
0000
1001
0000
0010
0000
0100
0010
0100
,
0001
0100
0010
0100
0000
1010
0000
0001
0000
0011
0000
0100
0000
1000
0010
1000
,
0100
0010
0100
0001
0000
1100
0000
0001
0000
1010
0000
0001
0000
0100
1000
0001
,
0100
0010
0100
0001
0000
1001
0000
0100
0000
0010
0000
0000
1000
0001
0000
0110
,
0000
0000
0010
0100
0000
1001
0000
0000
1000
0100
0000
0110
0000
1000
0001
1000
,
0001
1000
0001
1000
0000
0100
0000
0010
0000
0001
0000
0000
0010
0100
0000
1001
,
0000
0000
1000
0100
0000
0011
0000
0000
0010
0001
0000
1100
0000
0100
0010
0100
,
0010
0100
0010
0100
0000
0100
0000
0001
0000
0100
0000
0000
0100
0010
0000
1010
,
0000
0000
1000
0001
0000
0101
0000
0000
0100
0001
0000
1001
0000
1000
0100
0010
,
0001
0010
0100
1000
0000
0100
0000
0100
0000
0100
0000
0000
0010
0100
0000
0110
,
0000
0000
1000
0001
0000
0110
0000
0000
0001
1000
0000
0110
0000
0010
0001
1000
,
0010
0001
1000
0010
0000
0100
0000
0010
0000
1000
0000
0000
0010
0001
0000
0110
,
0000
0000
0010
1000
0000
0101
0000
0000
1000
0010
0000
1001
0000
0010
1000
0001
,
0010
1000
0010
0001
0000
1000
0000
0100
0000
0010
0000
0000
1000
0100
0000
1001
,
0000
0000
0001
0100
0000
1001
0000
0000
1000
0100
0000
1001
0000
0010
0100
0010
,
1000
0001
1000
0010
0000
1000
0000
0010
0000
0001
0000
0000
0100
0010
0000
0101
,
0000
0000
1000
0001
0000
1010
0000
0000
0010
0001
0000
1010
0000
1000
0001
1000
,
0001
0100
0010
0100
0000
0010
0000
0001
0000
0100
0000
0000
0010
0001
0000
1010
,
0000
0000
0010
0100
0000
1001
0000
0000
0000
1001
0000
0000
0000
1010
0000
0000
,
0000
1100
0000
0000
0000
1020
0000
0100
0000
1000
0000
0100
0000
1000
0000
0001
,
0000
0100
0000
0001
0000
0100
0000
0100
0000
0001
0000
1000
0030
0110
0000
0001
,
0000
0110
0000
0001
0000
2100
0000
0001
0000
0100
0000
0010
0000
0100
0000
0001
,
0000
0100
0000
0100
0000
0010
0000
0100
0000
0010
0000
0100
3000
0101
0000
0001
,
0000
1100
0000
0001
0000
0102
0000
0010
0000
0100
0000
1000
0000
0100
0000
1000
,
0003
0110
0000
1000
0000
2010
0000
0010
0000
0100
0000
3010
0000
2001
0000
0100
,
0000
0001
0000
0100
3000
0012
0000
0010
0000
0100
0000
0010
0000
0100
0000
0010
,
0000
0100
0000
0100
0000
0010
0000
0100
0000
1000
0000
0103
0000
0021
0000
1000
,
0000
0100
0000
0001
0030
0210
0000
0010
0000
1000
0000
0001
0300
2020
0030
3100
,
0000
2002
3000
0103
0000
0202
0300
0103
0000
0010
0000
0100
0000
0021
0000
1000
,
0000
0100
0000
1000
0030
0012
0000
0100
0000
0010
0000
0100
0000
1000
0000
0100
,
0003
2020
3000
0130
0000
0120
0000
0100
0000
1000
0000
0001
0000
0100
0000
0001
,
0000
1000
0000
0001
0030
0201
0000
1000
0000
0001
0000
0010
0300
2200
3000
1300
,
0000
0220
0300
0031
0000
1020
0000
0100
0000
1000
0000
0001
0030
0022
0030
0103
,
0000
2020
0030
3100
0000
2002
3000
0100
0000
0010
0000
0100
0000
1000
0000
0100
,
0000
0010
0000
0100
0003
2100
0000
0001
0000
0100
0000
0010
3000
1001
0000
0000
,
0000
1001
0000
0000
0000
1001
0100
0010
0000
0101
0000
0000
1000
0100
0000
0110
,
0000
0000
0001
0010
0000
0110
0000
0000
0100
0010
0000
0011
0000
0010
0100
1000
,
0001
0100
0010
0100
0001
0100
0010
0001
0000
1010
0000
0000
0100
1000
0000
0011
,
0000
0000
0010
0100
0000
1001
0000
0000
0010
1000
0000
0110
0000
0010
0001
0100
,
0001
0100
0010
1000
0100
1000
0010
0100
0000
0101
0000
0000
0001
0010
0000
1100
,
0000
0000
0010
0100
0000
1001
0000
0000
0100
0010
0000
1010
0000
0100
1000
0100
,
1000
0001
0100
0010
0100
0001
0100
1000
0000
1010
0000
0000
0001
0010
0000
1100
,
0000
0000
1000
0001
0000
1001
0000
0000
0001
0010
0000
1100
0000
1000
0001
1000
,
0001
1000
0100
1000
0001
0100
0001
0100
0000
0110
0000
0000
0010
0100
0000
0011
,
0000
0000
0010
1000
0000
0110
0000
0000
1000
0100
0000
0011
0000
1000
0100
0010
,
0100
0001
1000
0100
1000
0010
0100
0010
0000
0101
0000
0000
1000
0001
0000
0110
,
0000
0000
0010
0100
0000
0101
0000
0000
0001
0010
0000
0110
0000
0001
0010
0100
,
0001
0100
0010
0100
0001
0100
0010
0100
0000
1100
0000
0000
0010
0001
0000
1100
,
0000
0000
0010
0001
0000
1100
0000
0000
0010
0100
0000
0101
0000
0010
0001
0010
,
0001
0010
0100
0010
0100
1000
0100
1000
0000
0011
0000
0000
1000
0100
0000
1001
,
0000
0000
0100
1000
0000
0101
0000
0000
0010
0001
0000
1010
0000
0100
1000
0100
,
1000
0001
0100
0010
0100
0001
0100
0010
0000
1001
0000
0100
0010
0100
0000
0010
,
0000
0100
0001
0100
0000
0010
0100
0010
0000
0010
0000
0010
1000
0100
0000
0010
,
0000
0010
0001
0100
1000
0100
0001
0100
1000
0100
0000
0100
0010
0100
0000
0001
,
0000
0100
0001
0100
0000
1000
0000
0010
1000
0010
0000
0100
0000
0010
0100
0010
,
0000
1000
0000
0001
1000
0100
0001
1000
0000
0010
0100
0000
0010
0100
0010
0100
,
0000
1001
0000
1001
0000
0100
0000
0010
0000
0001
0100
0000
0010
0001
0010
0001
,
0000
1100
0000
0011
0000
0100
0000
1000
0000
0100
1000
0000
1000
0100
1000
0100
,
0000
0110
0000
0110
0000
0100
0000
0010
0000
1000
0001
0000
0010
0100
1000
0001
,
0000
0110
0000
0011
0000
1000
0000
0001
0000
0100
0001
0000
0010
0100
0001
0100
,
0000
0110
0000
1010
0000
0010
0000
1000
0000
0100
1000
0000
0100
0001
0100
0010
,
0000
1100
0000
0011
0000
0100
0000
0010
0000
0100
0001
0000
0010
0001
0010
0001
,
0000
0110
0000
1001
0000
0100
0000
1000
0000
0010
0100
0000
0100
0010
1000
0001
,
0000
1100
0000
0011
0000
1000
0000
0001
0000
0100
0010
0000
1000
0001
1000
0001
,
0000
0110
0000
0110
0000
1000
0000
0001
0000
0100
0010
0000
0100
1000
0001
0100
,
0000
0110
0000
1010
0000
0001
0000
1000
0000
0001
1000
0000
0100
0010
0100
0001
,
0000
0101
0000
1001
0000
0010
0000
0001
0000
0100
0010
0000
0100
0010
0100
0010
,
0000
1100
0000
1100
0000
0100
0000
0001
0000
0100
0010
0000
1000
0100
0010
0001
,
0000
1010
0000
1010
0000
0100
0000
0100
0000
0001
1000
0000
0010
0001
1000
0100
,
0000
1010
0000
0110
0000
0001
0000
0100
0000
0010
1000
0000
1000
0010
1000
0010
,
0000
1100
0000
0110
0000
1100
0000
0011
0000
0100
0010
0100
0000
1001
0000
0000
,
0000
0000
1001
0000
0000
0000
0000
0000
0000
0000
1000
0100
0010
0001
0010
0100
1000
0100
0010
0001
0010
0100
1000
0100
0010
1000
0100
1000
0100
1000
0100
0010
,
0100
0010
0100
0010
0100
0010
0001
0010
0001
0010
0001
0100
0001
0100
0001
0100
0001
0100
0001
0010
1000
0010
1000
0010
1000
0100
0010
0100
0010
0100
0010
0100
,
0010
0100
0010
0100
0010
0100
0010
0100
0010
0100
0010
1000
0010
1000
0010
1000
0010
1000
0010
1000
0010
0100
0001
0100
0001
0100
0001
0100
0001
0100
0001
0010
,
1000
0100
0010
1000
0100
0010
1000
0100
0010
1000
0100
0010
0001
0010
0100
0001
0010
0100
0001
0010
0100
0001
0010
0100
1000
0010
0100
0010
0100
0010
0100
0010
,
0100
0010
0001
0010
0001
0010
0001
0010
0001
0010
1000
0100
0010
0001
1000
0100
0010
0001
1000
0100
0010
0001
1000
0100
0010
0001
1000
0100
0010
0001
0100
0010
,
0100
1000
0001
0010
0100
1000
0001
0010
0100
1000
0001
0010
0100
1000
0100
0010
0100
0010
1000
0001
1000
0001
1000
0010
1000
0010
1000
0010
0100
0010
0100
0010
,
0100
0010
0100
0010
0100
0001
0100
0001
0100
0001
0100
0001
0100
0001
0010
0001
0010
0001
0010
0001
0010
0001
0100
0001
0100
0001
0100
0001
0100
1000
0010
1000
,
0010
1000
0010
1000
0010
1000
0010
1000
0100
0010
1000
0100
0010
0001
0010
0100
0001
0010
0100
1000
0001
1000
0001
1000
0001
1000
0100
1000
0010
0100
1000
0001
,
1000
0001
1000
0001
1000
0100
0001
0100
1000
0100
1000
0000
0000
0000
0100
0000
0001
0000
0010
0000
0000
0000
0100
0000
0000
0000
0010
0000
0000
0000
0100
0000
,
0001
1000
0000
0100
0000
1000
0000
0100
1000
0001
0000
0100
0010
1001
0000
0100
,
1000
0101
0000
0010
0100
1001
0000
0010
0100
0001
0000
0100
0000
0010
0000
0100
,
0001
1000
0000
0100
0000
1000
0000
0001
0010
0100
0000
0010
1000
0110
0000
0001
,
0100
0110
0000
0010
0100
1001
0000
0100
0001
1000
0000
0100
0000
1000
0000
0010
,
1000
0100
0000
0010
0000
0100
0000
0001
0010
0100
0000
0010
1000
0101
0000
0100
,
1000
0101
0000
0010
0100
1100
0000
1000
0001
1000
0000
1000
0000
0001
0000
0001
,
0100
0001
0000
0001
0000
0010
0000
0010
1000
0100
0000
0100
0001
1100
0000
1000
,
0010
0101
0000
0010
1000
1100
0000
0001
0010
0100
0000
0010
0000
0100
0000
1000
,
0001
0100
0000
1000
0000
0100
0000
0010
0001
0100
0000
1000
0010
0110
0000
0001
,
1000
0110
0000
0100
0010
1001
0000
1000
0010
0100
0000
0001
0000
0010
0000
1000
,
0010
0100
0000
0001
0000
0010
0000
1000
0001
0100
0000
0001
1000
0011
0000
1000
,
0010
1100
0000
1000
0001
0011
0000
1000
0010
0100
0000
1000
0001
0100
0000
0010
,
0100
1000
0000
0010
0100
1000
0000
0100
0010
1000
0000
0010
1000
0100
0000
1000
,
0001
0100
0000
0010
0100
0001
0000
0010
1000
0001
0000
0100
0001
0010
0000
0001
,
0100
0010
0000
0100
1000
0010
0000
0001
1000
0010
0000
0100
0010
0001
0000
0010
,
1000
0001
0000
0100
0001
0010
0000
0100
1000
0011
0000
0000
0100
0010
0000
0101
,
0000
0000
1000
0010
0000
0110
0000
0000
0001
0010
0000
0110
0000
0010
1000
0100
,
0001
0010
0100
0001
1000
0010
0000
0100
1000
0011
0000
0000
0100
0010
0000
1001
,
0000
0000
0100
0010
0000
0101
0000
0000
0100
0010
0000
1010
0000
1000
0010
1000
,
0001
1000
0010
1000
0001
1000
0000
0100
0010
1001
0000
0000
0100
0001
0000
1100
,
0000
0000
0010
0100
0000
0101
0000
0000
0010
1000
0000
0101
0000
1000
0100
0010
,
0001
0010
0100
1000
0100
0010
0000
0100
0001
0110
0000
0000
1000
0010
0000
0110
,
0000
0000
0010
0100
0000
1001
0000
0000
1000
0100
0000
0011
0000
1000
0100
0010
,
1000
0100
0010
1000
0010
0100
0000
0001
0010
1100
0000
0000
0001
0100
0000
0011
,
0000
0000
0100
0010
0000
1100
0000
0000
0010
0001
0000
0101
0000
1000
0001
1000
,
0001
0100
0010
0100
0010
0001
0000
0001
0010
1100
0000
0000
0010
1000
0000
0110
,
0000
0000
0010
0001
0000
1100
0000
0000
0010
0100
0000
0110
0000
1000
0001
1000
,
0100
0010
0100
0010
0000
1000
0001
1000
0000
0101
0000
0010
0000
0110
0000
1000
,
0000
1001
0000
0100
0000
0001
0010
0001
0000
0101
0000
1000
0000
0110
0000
1000
,
0000
1100
0000
0010
0000
0100
0001
0100
0000
1010
0000
0001
0000
0011
0000
0100
,
0000
0011
0000
0100
0000
1000
0010
1000
0000
0101
0000
1000
0000
0101
0000
0100
,
0000
0011
0000
0100
0000
0010
0100
0010
0000
0110
0000
1000
0000
0101
0000
0100
,
0000
0110
0000
0100
0000
0011
0000
0100
0000
0110
0000
0001
0000
1100
0000
0100
,
0000
0101
0000
0010
0000
0110
0000
0010
0000
0001
0000
0010
0000
0100
0000
0001
,
0000
0100
0000
1000
0000
0100
0000
0010
0000
0100
0000
0001
0000
1000
0000
0001
,
0000
0100
0000
0010
0000
1000
0000
1001
1001
1001
1001
2002
3003
0000
0000
0000
;

//---------------dance-single - ----------------
#NOTES:
     dance-single:
     :
     Hard:
     10:
     0.698,1.000,0.328,0.435,1.000,1120.000,89.000,118.000,0.000,0.000:











0000
0000
0000
0000
,
0000
0000
0000
0000
,
0000
0000
0000
0000
,
0000
0000
0000
0000
,
0000
0000
0000
0000
,
0000
2020
0000
0000
0000
0000
0000
0030
0002
0000
0000
0000
0000
0000
0000
0000
,
0000
3000
2000
0000
0000
0000
0000
0000
0000
0000
0000
0000
0000
0000
0000
0003
,
0020
0000
0000
0000
0000
0000
0000
3030
2200
0000
0000
0000
0000
0000
0000
0000
,
0000
0000
0000
0000
,
0000
0000
0000
0000
,
0000
0000
0000
0000
,
0000
0000
0000
0000
,
0000
0000
0000
0000
,
0000
0000
0000
0000
,
3300
0000
0022
0000
0000
0000
0000
0000
0000
0003
2000
0000
0000
0000
0000
0000
,
0000
0000
0000
0000
0030
0002
0000
0000
0000
0000
0000
0000
0000
0000
0000
0000
,
0000
3000
2000
0000
0000
0000
0000
0000
0000
3003
0202
0000
0000
0000
0000
0000
,
0000
0000
0000
0000
,
0000
0000
0000
0000
,
0000
0000
0000
0000
,
0000
0000
0000
0000
,
0000
0000
0000
0000
,
0000
0000
0000
0000
,
0000
0000
0000
0303
0000
2002
0000
0000
0000
0000
0000
0000
0000
0000
0000
0000
,
0000
0000
0000
0000
3003
0022
0000
0000
0000
0000
0000
0000
0000
0000
0000
0000
,
0000
0000
0000
0000
0033
0220
0000
0000
0000
0000
0000
0000
0000
0000
0000
0000
,
0000
0000
0000
0000
,
0000
0000
0000
0000
,
0000
0000
0000
0000
,
0000
0000
0000
0000
,
0000
0000
0000
0000
,
0000
0000
0000
0000
,
0000
0000
0330
0000
0000
1000
0000
0100
0000
0001
0000
0010
0000
1100
0000
0000
,
0000
1001
0000
0000
0000
0010
0000
0100
0000
0010
0000
0100
0000
1001
0000
0000
,
0000
1010
0000
0000
0000
0100
0000
0100
0000
0001
0000
1000
0000
0011
0000
0000
,
0000
1001
0000
0000
0000
0100
0000
0100
0000
1000
0000
0001
0000
0011
0000
0000
,
0000
0110
0000
0000
0000
0010
0000
1000
0000
0010
0000
1000
0000
0101
0000
0000
,
0000
1010
0000
0000
0000
0100
0000
0010
0000
0010
0000
0100
0000
1001
0000
0000
,
0000
1010
0000
0000
0000
0100
0000
0100
0000
0010
0000
0001
0000
1010
0000
0000
,
0000
1001
0000
0000
0000
2002
0000
0000
0000
0000
0000
0000
0003
0020
0000
0000
,
0000
0000
0000
3030
0000
1001
0000
0100
0000
1000
0000
0001
0000
0100
0000
0010
,
0100
0010
0000
1000
0000
0001
0000
0100
0000
0010
0000
0100
0000
1000
0000
0010
,
1000
0010
0000
0100
0000
0001
0000
0100
0000
0010
0000
0100
0000
0010
0000
0001
,
0010
0001
0000
1000
0000
0100
0000
1000
0000
0010
0000
0100
0000
1000
0000
1000
,
0001
1000
0000
0100
0000
1000
0000
0010
0000
0100
0000
0001
0000
0100
0000
0010
,
0100
1000
0000
0100
0000
1000
0000
0100
0000
1000
0000
0100
0000
0010
0000
0001
,
0010
0100
0000
1000
0000
0001
0000
0100
0000
0010
0000
0100
0000
0001
0000
0010
,
0100
0001
0000
0100
0000
0010
0000
0100
0000
1000
0000
0001
0000
0100
0000
0010
,
1000
0001
0000
0100
0000
0010
0000
1000
0000
0100
0000
1000
0000
0001
0000
0100
,
0010
0100
0000
1000
0000
0100
0000
1000
0000
0010
0000
0100
0000
0001
0000
0001
,
0010
0100
0000
1000
0000
0100
0000
1000
0000
0010
0000
0100
0000
0001
0000
0100
,
0010
0100
0000
1000
0000
0100
0000
1000
0000
0001
0000
1000
0000
0001
0000
1000
,
0100
0010
0000
0001
0000
0100
0000
0010
0000
0001
0000
0100
0000
1000
0000
0001
,
0010
0100
0000
1000
0000
0010
0000
0001
0000
0100
0000
1000
0000
0010
0000
0100
,
0010
0001
0000
0001
0000
0010
0000
0100
0000
1000
0000
0001
0000
0100
0000
1000
,
0001
0100
0000
0010
0000
1000
0000
0010
0000
0001
0000
0100
0000
1000
0000
0100
,
0010
0100
0000
1000
0000
0001
0000
0100
0000
0001
0000
0000
0010
0100
0000
1000
,
0000
0000
0010
0100
0000
0001
0000
0000
0010
0100
0000
1000
0000
0101
0000
1000
,
0000
0100
0000
0010
0000
0001
0000
0010
0000
1000
0000
0000
0100
0001
0000
1000
,
0000
0000
0100
0001
0000
0001
0000
0000
0100
0001
0000
0010
0000
1100
0000
0001
,
0000
0010
0000
1000
0000
0100
0000
1000
0000
0001
0000
0000
1000
0010
0000
0100
,
0000
0000
1000
0010
0000
0001
0000
0000
1000
0010
0000
1000
0000
0101
0000
0010
,
0000
1000
0000
0100
0000
0001
0000
0010
0000
0100
0000
0000
0010
1000
0000
0100
,
0000
0000
0100
0001
0000
0100
0000
0000
0010
0100
0000
1000
0000
0011
0000
0100
,
0000
0001
0000
0010
0000
0100
0000
0001
0000
0010
0000
0000
0100
0010
0000
1000
,
0000
0000
0001
0100
0000
0010
0000
0000
1000
0010
0000
0100
0000
1010
0000
0100
,
0000
0001
0000
0100
0000
1000
0000
0100
0000
0001
0000
0000
0001
1000
0000
0100
,
0000
0000
1000
0001
0000
0100
0000
0000
0001
1000
0000
0010
0000
0101
0000
1000
,
0000
0100
0000
1000
0000
0001
0000
0100
0000
0010
0000
0000
1000
0010
0000
0100
,
0000
0000
0001
0010
0000
0100
0000
0000
1000
0010
0000
0100
0000
1010
0000
0100
,
0000
1000
0000
0001
0000
0010
0000
0100
0000
1000
0000
0000
0001
0100
0000
1000
,
0000
0000
0010
0100
0000
0011
0000
1000
0001
1000
0000
1100
0000
0220
0000
0000
,
0300
0002
0000
0000
0033
1000
0000
0100
0000
0001
0000
0100
0000
0001
0000
0100
,
0000
1000
0000
0001
0000
0100
0000
1000
0000
0100
0000
1000
0000
0100
0000
0001
,
0000
0100
0000
0010
0000
1000
0000
0010
0000
0001
0000
0010
0000
1000
0000
0010
,
0000
0100
0000
0010
0000
1000
0000
0010
0000
0001
0000
0100
0000
1000
0000
0100
,
0000
1000
0000
0010
0000
0100
0000
0010
0000
1000
0000
0100
0000
1000
0000
0001
,
0000
0100
0000
0001
0000
0010
0000
0100
0000
0010
0000
1000
0000
0001
0000
1000
,
0000
0100
0000
1000
0000
0001
0000
0100
0000
0010
0000
0100
0000
0001
0000
0100
,
0000
0010
0000
0100
0000
1000
0000
0001
0000
0100
0000
0010
0000
1000
0000
0010
,
0000
0100
0000
1000
0000
0100
0000
0010
0000
0100
0000
0001
0000
1000
0000
0001
,
0000
0010
0000
1000
0000
0100
0000
0001
0000
0100
0000
0010
0000
0100
0000
1000
,
0000
0100
0000
0001
0000
0100
0000
0010
0000
0001
0000
1000
0000
0100
0000
1000
,
0000
0100
0000
0001
0000
0100
0000
0010
0000
1000
0000
0001
0000
0010
0000
0100
,
0000
0001
0000
0010
0000
0001
0000
0010
0000
0100
0000
0010
0000
1000
0000
0010
,
0000
0001
0000
0100
0000
0010
0000
0100
0000
1000
0000
0001
0000
1000
0000
0100
,
0000
0010
0000
1000
0000
0001
0000
0100
0000
0001
0000
1000
0000
0001
0000
0010
,
0000
0100
0000
1000
0000
0010
0000
1000
0000
0100
0000
0001
0000
2000
0000
0000
,
0000
0200
0000
0000
3000
1300
0000
0010
0000
1000
0000
0100
0000
0010
0000
0100
,
0000
0001
0000
0100
0000
1000
0000
0010
0000
0100
0000
0010
0000
0001
0000
0010
,
0000
1000
0000
0010
0000
0100
0000
0001
0000
1000
0000
0010
0000
1000
0000
0100
,
0000
1000
0000
0001
0000
0100
0000
1000
0000
0010
0000
0001
0000
0100
0000
1000
,
0000
0010
0000
0001
0000
0001
0000
0010
0000
1000
0000
0010
0000
0001
0000
0010
,
0000
1000
0000
0010
0000
0001
0000
1000
0000
0100
0000
0001
0000
0100
0000
1000
,
0000
0100
0000
0001
0000
1000
0000
0100
0000
0010
0000
0001
0000
0100
0000
0001
,
0000
1000
0000
0010
0000
1000
0000
0100
0000
0001
0000
0010
0000
1000
0000
0010
,
0000
1000
0000
0001
0000
0010
0000
0100
0000
0010
0000
1000
0000
0001
0000
1000
,
0000
0100
0000
0010
0000
0100
0000
0001
0000
0010
0000
1000
0000
0010
0000
1000
,
0000
0100
0000
0010
0000
1000
0000
0001
0000
0100
0000
0010
0000
0001
0000
0010
,
0000
1000
0000
0001
0000
0010
0000
0100
0000
0010
0000
1000
0000
0010
0000
0001
,
0000
0010
0000
1000
0000
0010
0000
0100
0000
0001
0000
0010
0000
1000
0000
0010
,
0000
0100
0000
1000
0000
0100
0000
0001
0000
1000
0000
0100
0000
0010
0000
0001
,
0000
0010
0000
1000
0000
0010
0000
1000
0000
0010
0000
0001
0000
0100
0000
1000
,
0000
0100
0000
0001
0000
0100
0000
1000
0000
0100
0000
0001
0000
0010
0000
1000
,
0000
0001
0000
1000
0000
0001
0010
0100
0000
0001
0000
1000
0001
0010
0000
1000
,
0000
0100
0010
1000
0000
0010
0100
1000
0000
0001
0000
0100
1000
0010
0000
0100
,
0000
0001
0100
1000
0000
0010
0001
0100
0000
0001
0000
1000
0100
0010
0000
0100
,
0000
1000
0100
0010
0000
0100
1000
0001
0000
0100
0000
0010
0100
1000
0000
0100
,
0000
0001
0100
1000
0000
0001
0000
0001
0010
0000
0100
1000
0000
0001
0100
0000
,
0010
0100
0000
1001
0000
0001
0000
1000
0100
0000
0001
0010
0000
0001
1000
0000
,
0010
1000
0000
1001
0000
0001
0000
0010
0100
0000
0001
1000
0000
1000
0010
0000
,
0010
0100
0000
1010
0000
0001
0000
0100
0010
0000
0010
1000
0000
1000
0010
0000
,
0010
1000
0000
1001
0000
1000
0000
0001
0010
0000
0010
0001
0000
0001
0010
0000
,
0100
0001
0000
1100
0000
0100
0000
0100
0010
0000
0010
0100
0000
0100
0010
0000
,
0010
1000
0000
1010
0000
1000
0000
0001
0100
0000
0010
0100
0000
1000
0010
0000
,
0100
0001
0000
1001
0000
1000
0000
0010
0100
0000
0100
0010
0000
0001
0010
0000
,
0010
0001
0000
0101
0000
0001
0000
0001
1000
0000
1000
0001
0000
0001
1000
0000
,
0100
0010
0000
1100
0000
1000
0000
0010
0100
0000
1000
0010
0000
0010
1000
0000
,
0100
0001
0000
1010
0000
0010
0000
1000
0001
0000
0001
1000
0000
0010
0100
0000
,
0010
0001
0000
0011
0000
0010
0000
0100
0010
0000
0001
1000
0000
0010
0100
0000
,
1000
0001
0000
0011
0000
0001
0000
0001
1000
0000
0010
0100
0000
0001
0100
0000
,
0100
0001
0000
1100
0000
1000
0000
0010
0100
0000
0100
0010
0000
1000
0001
0000
,
0001
1000
0000
1010
0000
1000
0000
0010
0100
0000
0100
0001
0000
0001
0100
0000
,
0010
0100
0000
1010
0000
0010
0000
0010
0100
0000
0100
0010
0000
0220
0000
0000
,
0300
2000
0000
0000
3000
0000
2030
0000
3002
0000
0023
0030
2200
0300
3002
0000
,
0203
0000
2300
3000
0220
0030
2300
0000
3002
0000
0203
0300
2020
3000
0230
0000
,
0302
0000
2003
3000
0202
0300
2003
0000
3200
0000
2300
3000
0022
0003
0230
0000
,
0320
0000
2030
3000
0202
0300
0203
0000
0302
0000
0203
0300
2002
3000
2003
0000
,
3002
0000
2003
3000
2020
0030
3020
0000
0230
0000
0320
0030
2200
3000
0320
0000
,
0230
0000
0320
0030
0202
0300
0023
0000
0032
0000
0023
0030
0202
0300
0203
0000
,
2300
0000
3200
0300
2002
3000
0203
0000
0320
0000
0230
0300
2002
0003
3002
0000
,
0023
0000
0230
0300
2020
0030
3200
0000
0320
0000
0032
0003
2200
0300
3002
0000
,
2003
0000
3002
0003
2010
0100
3000
1000
0000
0100
0000
0001
0000
0100
0000
1000
,
0000
0100
0000
0001
0000
0100
0000
1000
0000
0100
0000
0001
0000
0100
0000
1000
,
0000
0100
0000
1000
0000
0010
0000
0001
0000
0010
0000
1000
0000
0010
0000
0001
,
0000
0010
0000
1000
0000
0010
0000
0001
0000
0010
0000
1000
0000
0010
0000
0100
,
0000
1000
0000
0001
0000
0010
0000
1000
0000
0001
0000
0010
0000
1000
0000
0100
,
0000
0001
0000
0010
0000
1000
0000
0100
0000
0001
0000
1000
0000
0010
0000
1000
,
0000
0001
0000
0100
0000
1000
0000
0010
0000
0100
0000
0001
0000
0100
0000
1000
,
0000
0100
0000
0001
0000
0100
0000
1000
0000
0100
0000
0001
0000
0100
0000
1000
,
0000
0100
0000
0001
0000
0100
0000
1000
0000
0010
0000
0001
0000
0010
0000
1000
,
0000
0100
0000
1000
0000
0010
0000
0001
0000
0100
0000
1000
0000
0010
0000
0100
,
0000
0001
0000
0010
0000
1000
0000
0100
0000
0010
0000
0001
0000
0001
0000
0100
,
0000
1000
0000
0001
0000
0100
0000
0010
0000
0100
0000
1000
0000
0100
0000
0001
,
0000
0100
0000
0010
0000
0001
0000
0010
0000
0100
0000
0001
0000
0100
0000
1000
,
0000
0010
0000
1000
0000
0100
0000
1000
0000
0001
0000
0100
0000
0010
0000
1000
,
0000
0001
0000
0010
0000
0100
0000
0001
0000
1000
0000
0100
0000
0010
0000
0100
,
0000
0010
0000
0100
0000
1000
0000
0001
0000
0010
0000
1000
0000
1000
0000
0100
,
0000
0010
0000
0001
0000
0010
0000
0100
0000
0001
0000
0000
1000
0010
0000
0100
,
0000
0000
0001
0010
0000
0100
0000
0000
0010
0100
0000
0010
0000
1100
0000
0010
,
0000
1000
0000
0001
0000
0100
0000
0010
0000
1000
0000
0000
0010
0100
0000
0001
,
0000
0000
0010
0001
0000
0010
0000
0000
0010
0001
0000
0100
0000
1010
0000
0100
,
0000
0010
0000
1000
0000
0001
0000
1000
0000
0001
0000
0000
0001
1000
0000
1000
,
0000
0000
1000
0001
0000
0001
0000
0000
0001
1000
0000
1000
0000
0110
0000
0010
,
0000
0001
0000
0010
0000
0100
0000
1000
0000
0010
0000
0000
0010
0100
0000
0010
,
0000
0000
0001
1000
0000
0010
0000
0000
0100
0001
0000
0010
0000
1100
0000
0010
,
0000
0100
0000
1000
0000
0001
0000
0010
0000
0100
0000
1000
0000
0110
0000
0001
,
0000
0100
0000
0010
0000
1000
0000
0001
0000
0100
0000
0010
0000
0101
0000
0010
,
0000
1000
0000
0010
0000
1000
0000
0100
0000
0001
0000
0100
0000
1010
0000
0001
,
0000
0100
0000
0010
0000
0100
0000
0001
0000
0100
0000
0010
0000
0101
0000
1000
,
0000
0102
0000
1000
0000
0200
0000
0000
0000
0000
0000
0000
0000
0000
0303
0000
,
0000
0110
0000
0000
0000
0200
0000
0000
0000
0000
0000
0000
0000
0010
0000
0000
,
0000
0010
0000
0000
0300
0022
0000
0000
0000
0000
0000
0000
0003
0100
0000
0000
,
0000
0001
0000
0000
0000
2000
0000
0000
0000
0000
0000
0000
0000
0000
3030
0000
,
0000
1010
0000
0100
0000
0010
0000
1000
0000
0011
0000
0010
0000
0100
0000
0010
,
0000
1010
0000
0100
0000
0001
0000
1000
0000
0110
0000
1000
0000
0001
0000
0100
,
0000
1001
0000
0010
0000
0100
0000
0001
0000
0110
0000
1000
0000
0001
0000
0100
,
0000
1010
0000
0100
0000
1010
0000
0001
0000
1100
0000
0010
0000
0101
0000
1000
,
0000
1001
0000
0100
0000
0110
0000
1000
0001
1000
0001
2002
0000
3003
0000
0000
;

//---------------dance-single - ----------------
#NOTES:
     dance-single:
     :
     Medium:
     8:
     0.511,0.560,0.339,0.324,1.000,791.000,92.000,88.000,0.000,1.000:








0000
0000
0000
2002
0000
0000
0000
0000
,
0000
0000
0000
0000
,
0000
0000
0000
0000
,
0000
0000
0000
0000
,
0000
0000
0000
0000
0000
0000
0000
3003
,
0000
0000
2000
0000
0000
0000
0000
0000
0000
0002
0000
0000
0000
0000
0000
0000
,
3000
0000
2000
0000
0000
0000
0000
0000
0000
0000
0000
0000
0000
0003
0020
0000
,
0000
0000
0000
0000
3030
0220
0000
0000
0000
0000
0000
0000
0000
0000
0000
0000
,
0000
0000
0000
0000
,
0000
0000
0000
0000
,
0000
0000
0000
0000
,
0000
0000
0000
0000
,
0000
0000
0000
0000
,
0000
0000
0000
0000
,
0330
2000
0000
0000
0000
0020
0000
0000
,
0000
0000
3000
2000
0000
0000
0000
0000
0000
0000
0000
0000
0000
0000
0000
0000
,
0000
0030
0020
0000
0000
0000
0000
0000
3030
0022
0000
0000
0000
0000
0000
0000
,
0000
0000
0000
0000
,
0000
0000
0000
0000
,
0000
0000
0000
0000
,
0000
0000
0000
0000
,
0000
0000
0000
0000
,
0000
0000
0000
0000
,
0000
0000
0000
0000
0033
2000
0000
0000
0000
0000
0000
0000
0000
0000
0000
0000
,
0000
0000
0000
0000
0000
0020
0000
0000
0000
0000
0000
0000
0000
0000
0000
0000
,
0000
0000
0000
0000
0000
0200
0000
0000
0000
0000
0000
0000
0000
0000
0000
0000
,
0000
0000
0000
0000
,
0000
0000
0000
0000
,
0000
0000
0000
0000
,
0000
0000
0000
0000
,
0000
0000
0000
0000
,
0000
0000
0000
0000
,
0000
0000
3330
0000
0000
1100
0000
0000
0000
0011
0000
0000
0000
0001
0000
0010
,
0000
0100
0000
0000
0000
1001
0000
0000
0000
0101
0000
0000
0000
1000
0000
0010
,
0000
1000
0000
0000
0000
0011
0000
0000
0000
0101
0000
0000
0000
0010
0000
0100
,
0000
0010
0000
0000
0000
1010
0000
0000
0000
1001
0000
0000
0000
0100
0000
0001
,
0000
0100
0000
0000
0000
1010
0000
0000
0000
0011
0000
0000
0000
0100
0000
0010
,
0000
0100
0000
0000
0000
0011
0000
0000
0000
0110
0000
0000
0000
0100
0000
0001
,
0000
1000
0000
0000
0000
0110
0000
0000
0000
1001
0000
0000
0000
0010
0000
0100
,
0000
0010
0000
0000
0000
1000
0000
0100
0000
0010
0000
0001
0000
0010
0000
0100
,
0000
1000
0000
0100
0000
0010
0000
0001
0000
0010
0000
0000
0000
1000
0000
0001
,
0000
1000
0000
0000
0000
0010
0000
0100
0000
0010
0000
0000
0000
0001
0000
1000
,
0000
0001
0000
0000
0000
0100
0000
0001
0000
0100
0000
0000
0000
0010
0000
1000
,
0000
0010
0000
0000
0000
1000
0000
0001
0000
1000
0000
0000
0000
0001
0000
0100
,
0000
0010
0000
0000
0000
1000
0000
0010
0000
0001
0000
0000
0000
0001
0000
0010
,
0000
1000
0000
0000
0000
0100
0000
1000
0000
0001
0000
0000
0000
0010
0000
0100
,
0000
0010
0000
0000
0000
1000
0000
0010
0000
0100
0000
0000
0000
0001
0000
0010
,
0000
0100
0000
0000
0000
1000
0000
0010
0000
0100
0000
0000
0000
0001
0000
0010
,
0000
0001
0000
0000
0000
1000
0000
0100
0000
0010
0000
0001
0000
0010
0000
0100
,
0000
1000
0000
0000
0000
1000
0000
0100
0000
0010
0000
0001
0000
0010
0000
0100
,
0000
1000
0000
0000
0000
0001
0000
0010
0000
0100
0000
1000
0000
0100
0000
0010
,
0000
0001
0000
0000
0000
0001
0000
0010
0000
0100
0000
1000
0000
0100
0000
0010
,
0000
0001
0000
0000
0000
1000
0000
0010
0000
0100
0000
0010
0000
0100
0000
0001
,
0000
0010
0000
0000
0000
1000
0000
0010
0000
0100
0000
0010
0000
0100
0000
0001
,
0000
0100
0000
0000
0000
1000
0000
0001
0000
1000
0000
0001
0000
0010
0000
0001
,
0000
0100
0000
0000
0000
1000
0000
0001
0000
1000
0000
0001
0000
0100
0000
1000
,
0000
0010
0000
0000
0000
0100
0000
1000
0000
0010
0000
0000
0000
0100
0000
0001
,
0000
0010
0000
0000
0000
1000
0000
0001
0000
1000
0000
0001
0000
0100
0000
0010
,
0000
0001
0000
0000
0000
0001
0000
0010
0000
0001
0000
0000
0000
1000
0000
0010
,
0000
1000
0000
0000
0000
0100
0000
0001
0000
0100
0000
0001
0000
0010
0000
1000
,
0000
0010
0000
0000
0000
0100
0000
1000
0000
0001
0000
0000
0000
0001
0000
0010
,
0000
0001
0000
0000
0000
0100
0000
0010
0000
0100
0000
0001
0000
1000
0000
0100
,
0000
1000
0000
0000
0000
0010
0000
0100
0000
0010
0000
0000
0000
0100
0000
0010
,
0000
0100
0000
0000
0000
0001
0000
1000
0000
0010
0000
0100
0000
1000
0000
0010
,
0000
0100
0000
0000
0000
0001
0000
0010
0000
0001
0000
0000
0000
0100
0000
1000
,
0000
0100
0000
0000
0000
0010
0000
0001
0000
0010
0000
0100
0000
1000
0000
0100
,
0000
0010
0000
0000
0000
0100
0000
0001
0000
0100
0000
0000
0000
0010
0000
1000
,
0000
0010
0000
0000
0000
0100
0000
0010
0000
1000
0000
0001
0000
0100
0000
0010
,
0000
1000
0000
0000
0000
0001
0000
0010
0000
0100
0000
0000
0000
1000
0000
0100
,
0000
0010
0000
0000
0000
0001
0000
0010
0000
0100
0000
1000
0000
0100
0000
0010
,
0000
0100
0000
0000
0000
1000
0000
0001
0000
1000
0000
0000
0000
0010
0000
0100
,
0000
0010
0000
0000
0000
1000
0000
0001
1000
0000
1000
0001
0000
0110
0000
0000
,
0000
0110
0000
0000
0000
1100
0000
0000
0000
1001
0000
0000
0000
0011
0000
0000
,
0000
1100
0000
0000
0000
0110
0000
0000
0000
0011
0000
0000
0000
1100
0000
0000
,
0000
0110
0000
0000
0000
1010
0000
0000
0000
1010
0000
0000
0000
0101
0000
0000
,
0000
0101
0000
0000
0000
0011
0000
0000
0000
1100
0000
0000
0000
1010
0000
0000
,
0000
0101
0000
0000
0000
0110
0000
0000
0000
1100
0000
0000
0000
0101
0000
0000
,
0000
0110
0000
0000
0000
0011
0000
0000
0000
1010
0000
0000
0000
1001
0000
0000
,
0000
0110
0000
0000
0000
1001
0000
0000
0000
0101
0000
0000
0000
0110
0000
0000
,
0000
1100
0000
0000
0000
0011
0000
0000
0000
0110
0000
0000
0000
1100
0000
0000
,
0000
0101
0000
0000
0000
1100
0000
0000
0000
0101
0000
0000
0000
0101
0000
0000
,
0000
1010
0000
0000
0000
0101
0000
0000
0000
1010
0000
0000
0000
1100
0000
0000
,
0000
0110
0000
0000
0000
1100
0000
0000
0000
0101
0000
0000
0000
0110
0000
0000
,
0000
0101
0000
0000
0000
0110
0000
0000
0000
1001
0000
0000
0000
1001
0000
0000
,
0000
1010
0000
0000
0000
1001
0000
0000
0000
0011
0000
0000
0000
1100
0000
0000
,
0000
0110
0000
0000
0000
1100
0000
0000
0000
0110
0000
0000
0000
1100
0000
0000
,
0000
0110
0000
0000
0000
0011
0000
0000
0000
0110
0000
0000
0000
0011
0000
0000
,
0000
0110
0000
0000
0000
0101
0000
0000
0000
0110
0000
0000
0000
0101
0000
0000
,
0000
0110
0000
0000
0000
1001
0000
0100
0000
0010
0000
0000
0000
0001
0000
0010
,
0000
0100
0000
0000
0000
1000
0000
0001
0000
1000
0000
0000
0000
0010
0000
1000
,
0000
0010
0000
0000
0000
0100
0000
0001
0000
0100
0000
0000
0000
1000
0000
0001
,
0000
1000
0000
0000
0000
0010
0000
0100
0000
0010
0000
0000
0000
1000
0000
0001
,
0000
0100
0000
0000
0000
0010
0000
1000
0000
0100
0000
0000
0000
0100
0000
0010
,
0000
0100
0000
0000
0000
0010
0000
0001
0000
0100
0000
0000
0000
1000
0000
0010
,
0000
0100
0000
0000
0000
0100
0000
0001
0000
1000
0000
0000
0000
0100
0000
1000
,
0000
0010
0000
0000
0000
0100
0000
0010
0000
0001
0000
0000
0000
0010
0000
0100
,
0000
1000
0000
0010
0000
0100
0000
0001
0000
0100
0000
0010
0000
1000
0000
0100
,
0000
0010
0000
0100
0000
0010
0000
0100
0000
0010
0000
1000
0000
0010
0000
1000
,
0000
0010
0000
0100
0000
0001
0000
0100
0000
0001
0000
0100
0000
0001
0000
0100
,
0000
0010
0000
0100
0000
1000
0000
0100
0000
0001
0000
0010
0000
0001
0000
0010
,
0000
0001
0000
0100
0000
1000
0000
0100
0000
1000
0000
0100
0000
0010
0000
0100
,
0000
1000
0000
0001
0000
1000
0000
0001
0000
1000
0000
0010
0000
0100
0000
0001
,
0000
0100
0000
1000
0000
0010
0000
0100
0000
1000
0000
0010
0000
0100
0000
0001
,
0000
0100
0000
0010
0000
0100
0000
1000
0000
0001
0000
1000
0000
0001
0000
1000
,
0000
0001
0000
0010
0000
0100
0000
1000
0000
0100
0000
0000
0000
0010
0000
0100
,
0000
0000
0000
0100
0000
0010
0000
0000
0000
1000
0000
0001
0000
0000
0000
0001
,
0000
1000
0000
0000
0000
0100
0000
0010
0000
1000
0000
0000
0000
0001
0000
0100
,
0000
0000
0000
0010
0000
0100
0000
0000
0000
1000
0000
0010
0000
0000
0000
0100
,
0000
0001
0000
0000
0000
0000
0000
1000
0000
0001
0000
0020
0000
0000
0000
0130
,
0000
1000
0000
0002
0000
0000
0000
0010
0000
0000
0000
0010
0000
0000
0000
0010
,
0000
0000
0000
0013
0000
0000
0000
1000
0000
0001
0000
0200
0000
0000
0000
0310
,
0000
2000
0000
0001
0000
0000
0000
0001
0000
0000
0000
0001
0000
0000
0000
0001
,
0000
0000
0000
3001
0000
0000
0000
1000
0000
0010
0000
0200
0000
0000
0000
0301
,
0000
0020
0000
0100
0000
0000
0000
0100
0000
0000
0000
0100
0000
0000
0000
0100
,
0000
0000
0000
0130
0000
0000
0000
0010
0000
0100
0000
0002
0000
0000
0000
1003
,
0000
0002
0000
0010
0000
0000
0000
0010
0000
0000
0000
0010
0000
0000
0000
0010
,
0000
0000
0000
0013
0000
0000
0000
1000
0000
0001
0000
2000
0000
0000
0000
3010
,
0000
0002
0000
1000
0000
0000
0000
1000
0000
0000
0000
1000
0000
0000
0000
1000
,
0000
0000
0000
1003
0000
0000
0000
0001
0000
0010
0000
0200
0000
0000
0000
1300
,
0000
0200
0000
0010
0000
0000
0000
0010
0000
0000
0000
0010
0000
0000
0000
0010
,
0000
0000
0000
0310
0000
0000
0000
1000
0000
0001
0000
2000
0000
0000
0000
3010
,
0000
0200
0000
0010
0000
0000
0000
0001
0000
0000
0000
0001
0000
0000
0000
0001
,
0000
0000
0000
0301
0000
0000
0000
1000
0000
0010
0000
0200
0000
0000
0000
0301
,
0000
0010
0000
0100
0000
0010
0000
0100
0010
0000
0010
0100
0000
1001
0000
0000
,
0000
1001
0000
0000
0000
0000
0000
2002
0000
0000
3000
0020
0030
0020
0000
0000
,
0030
2003
0000
0000
0000
0002
0000
0000
0000
0000
0000
3003
0000
2000
0000
3200
,
0000
0320
0000
0032
0000
0203
0000
0000
0000
0000
0000
0000
0300
0200
0000
0000
,
0300
0002
0003
0002
0003
0002
0000
0000
0000
0000
0003
2000
0000
0002
0000
0000
,
3000
0200
0000
0000
0003
0020
0000
0000
0000
0000
0000
0000
0000
0000
0330
0200
,
0000
0320
0000
2030
0000
3002
0000
0000
0000
0000
0000
0000
0003
0020
0000
2030
,
0000
3002
0000
0203
0000
0320
0000
0000
0000
0000
0000
0000
0030
2000
0000
0000
,
3000
0020
0030
0020
0030
0020
0000
0000
0030
0020
0000
0000
0030
0020
0000
0000
,
0030
1100
0000
0011
0000
1000
0000
0001
0000
1000
0000
0100
0000
1000
0000
0100
,
0000
0010
0000
0001
0000
0100
0000
0010
0000
0100
0000
0001
0000
1000
0000
0100
,
0000
0010
0000
1000
0000
0001
0000
1000
0000
0100
0000
1000
0000
0100
0000
0010
,
0000
0001
0000
0010
0000
0100
0000
1000
0000
0001
0000
1000
0000
0001
0000
1000
,
0000
0001
0000
0100
0000
0001
0000
0100
0000
0001
0000
0100
0000
0010
0000
0100
,
0000
0010
0000
0100
0000
0010
0000
0100
0000
1000
0000
0010
0000
1000
0000
0010
,
0000
1000
0000
0010
0000
1000
0000
0001
0000
0010
0000
0001
0000
0010
0000
0001
,
0000
0010
0000
0001
0000
1000
0000
0001
0000
1000
0000
0001
0000
1000
0000
0100
,
0000
1000
0000
0100
0000
2002
0000
0000
0000
0000
0000
0000
3000
0020
0000
0000
,
0030
0020
0000
0000
0030
0020
0000
0000
0000
0000
0000
0000
0033
0020
0000
0000
,
0000
0000
0000
0000
0000
0200
0000
0000
0000
0000
0000
0000
0000
0000
0000
0330
,
0000
2002
0000
0000
3003
2002
0000
0000
0000
0000
0000
0000
0000
0000
0000
0000
,
0000
0000
0000
0000
3000
0020
0000
0000
0000
0000
0000
0000
0033
2000
0000
0000
,
0000
3002
0000
0000
0003
2000
0000
0000
0000
0000
0000
0000
0000
0000
0000
0000
,
0000
0020
0000
0000
3000
0200
0000
0000
0000
0000
0300
0200
0000
0000
0000
0000
,
0000
0000
0000
0000
0030
0020
0000
0000
0000
0000
0000
0000
0000
0000
0000
0000
,
0000
0300
0000
0002
0030
0013
0000
1000
0000
0001
0000
0000
0000
0001
0000
1000
,
0000
0000
0000
1000
0000
0001
0000
0000
0000
0010
0000
0100
0000
0000
0000
1000
,
0000
0010
0000
0000
0000
1000
0000
0001
0000
1000
0000
0000
0000
0010
0000
0001
,
0000
0000
0000
0010
0000
1000
0000
0000
0000
0100
0000
1000
0000
0000
0000
0001
,
0000
0100
0000
0000
0000
1000
0000
0010
0000
0100
0000
0000
0000
0001
0000
0010
,
0000
0000
0000
0010
0000
0001
0000
0000
0000
0001
0000
0010
0000
0000
0000
0010
,
0000
0001
0000
0000
0000
0001
0000
1000
0000
0100
0000
0000
0000
1000
0000
0001
,
0000
0000
0000
0001
0000
1000
0000
0000
0000
0010
0000
0100
0000
0000
0000
1000
,
0000
0010
0000
0000
0000
0100
0000
0001
0000
1000
0000
0000
0000
0010
0000
1000
,
0000
0000
0000
1000
0000
0010
0000
0000
0000
0100
0000
0001
0000
0000
0000
0001
,
0000
1000
0000
0000
0000
0100
0000
0010
0000
0100
0000
0000
0000
1000
0000
0010
,
0000
0000
0000
0001
0000
1000
0000
0000
0000
1000
0000
0001
0000
0000
0000
0001
,
0000
0010
0000
0000
0000
0100
0000
1000
0000
0100
0000
1000
0000
0001
0000
0100
,
0000
0001
0000
0100
0000
1000
0000
0100
0000
0001
0000
0100
0000
1000
0000
0100
,
0000
0010
0000
0100
0000
0001
0000
0010
0000
0001
0000
0100
0000
0010
0000
0100
,
0000
1000
0000
0001
0000
1000
0000
0001
0000
1000
0000
0100
0000
1000
0000
0001
,
0000
0100
0000
0010
0000
1000
0000
0010
0000
0100
0000
0000
0000
0001
0000
0010
,
0000
0100
0000
0000
0000
1000
0000
0100
0000
0010
0000
0000
0000
1000
0000
0001
,
0000
1000
0000
0000
0000
0001
0000
0010
0000
0001
0000
0000
0000
1000
0000
0010
,
0000
1000
0000
0000
0000
0100
0000
0010
0000
0100
0000
0000
0000
0100
0000
1000
,
0000
0100
0000
0000
0000
1000
0001
0000
1000
0001
0000
0002
2000
0000
3003
0000
;

//---------------dance-single - ----------------
#NOTES:
     dance-single:
     :
     Easy:
     5:
     0.308,0.435,0.015,0.398,0.871,473.000,4.000,108.000,0.000,0.000:

0000
0000
0000
0000
,
0000
0000
0000
0000
,
0000
0000
0000
0000
,
0000
0000
0000
0000
,
0000
0000
0000
0000
,
0000
0000
0000
0000
0000
0220
0000
0000
0000
0000
0000
0000
0000
0000
0000
0000
,
0000
0000
0000
0000
,
0000
0000
0000
0000
,
0000
0000
0000
0000
,
0000
0000
0000
0000
,
0000
0000
0000
0000
,
0000
0000
0000
0000
,
0000
0000
0000
0000
,
0000
0000
0000
0000
,
0000
0000
0000
0000
0330
0220
0000
0000
0000
0000
0000
0000
0000
0000
0000
0000
,
0000
0000
0000
0000
,
0000
0000
0000
0000
,
0000
0000
0000
0000
,
0000
0000
0000
0000
,
0000
0000
0000
0000
,
0000
0000
0000
0000
,
0000
0000
0000
0000
,
0000
0000
0000
0000
,
0000
0000
0000
0000
0330
0220
0000
0000
0000
0000
0000
0000
0000
0000
0000
0000
,
0000
0000
0000
0000
,
0000
0000
0000
0000
,
0000
0000
0000
0000
,
0000
0000
0000
0000
,
0000
0000
0000
0000
,
0000
0000
0000
0000
,
0000
0000
0000
0000
,
0000
0000
0000
0000
,
0000
0000
0000
0330
0000
0020
0000
0000
0000
0130
0000
0000
0000
0020
0000
0000
,
0000
1030
0000
0000
0000
0020
0000
0000
0000
0031
0000
0000
0000
0200
0000
0000
,
0000
0310
0000
0000
0000
2000
0000
0000
0000
3100
0000
0000
0000
2000
0000
0000
,
0000
3010
0000
0000
0000
0002
0000
0000
0000
0103
0000
0000
0000
0002
0000
0000
,
0000
0013
0000
0000
0000
0200
0000
0000
0000
1300
0000
0000
0000
0200
0000
0000
,
0000
0310
0000
0000
0000
2000
0000
0000
0000
3001
0000
0000
0000
0200
0000
0000
,
0000
0310
0000
0000
0000
0200
0000
0000
0000
0310
0000
0000
0000
0200
0000
0000
,
0000
0310
0000
0000
0000
0200
0000
0000
0000
0000
0000
0000
0300
0200
0000
0000
,
0000
0000
0000
0000
0300
0200
0000
0000
0000
0000
0000
0000
0000
0000
0000
0000
,
0000
0320
0000
0030
0000
0020
0000
0000
0000
0000
0000
0000
0000
0230
0000
0000
,
0300
0200
0000
0000
0300
0200
0000
0000
0000
0000
0000
0000
0300
2000
0000
0000
,
3000
2000
0000
0000
3000
2000
0000
0000
0000
0000
0000
0000
0000
0000
0000
0000
,
3000
0002
0000
0000
0003
0002
0000
0000
0000
0000
0000
0000
0000
0000
0000
0000
,
0003
0020
0000
0000
0030
0020
0000
0000
0000
0000
0000
0000
0030
2000
0000
0000
,
3000
2000
0000
0000
3000
2000
0000
0000
0000
0000
0000
0000
3000
0200
0000
0000
,
0300
0200
0000
0000
0300
0200
0000
0000
0000
0000
0000
0000
0000
0000
0000
0000
,
0300
0002
0000
0000
0003
0002
0000
0000
0000
0000
0000
0000
0000
0000
0000
0000
,
0003
0020
0000
0000
0030
0020
0000
0000
0000
0000
0000
0000
0000
0000
0000
0000
,
0000
0000
0000
0000
0030
2000
0000
0000
0000
0000
0000
0000
0000
0000
0000
0000
,
3000
0002
0000
0000
0003
0002
0000
0000
0000
0000
0000
0000
0003
2000
0000
0000
,
0000
0000
0000
0000
3000
0020
0000
0000
0000
0000
0000
0000
0000
0000
0000
0000
,
0030
0020
0000
0000
0030
0020
0000
0000
0000
0000
0000
0000
0000
0000
0000
0000
,
0000
0000
0000
0000
,
0000
0000
0000
0000
0030
2000
0000
0000
0000
0000
0000
0000
3000
0002
0000
0000
,
0000
0000
0000
0000
0003
0100
0000
0000
0000
0100
0000
0000
0000
1000
0000
0000
,
0000
1000
0000
0000
0000
0001
0000
0000
0000
0001
0000
0000
0000
0100
0000
0000
,
0000
0100
0000
0000
0000
0010
0000
0000
0000
0010
0000
0000
0000
0100
0000
0000
,
0000
0100
0000
0000
0000
0001
0000
0000
0000
0001
0000
0000
0000
1000
0000
0000
,
0000
1000
0000
0000
0000
0001
0000
0000
0000
0001
0000
0000
0000
0010
0000
0000
,
0000
0010
0000
0000
0000
1000
0000
0000
0000
1000
0000
0000
0000
0100
0000
0000
,
0000
0100
0000
0000
0000
0010
0000
0000
0000
0010
0000
0000
0000
0100
0000
0000
,
0000
0100
0000
0000
0000
1000
0000
0000
0000
1000
0000
0000
0000
0010
0000
0000
,
0000
0010
0000
0000
0000
0100
0000
0000
0000
0100
0000
0000
0000
1000
0000
0000
,
0000
1000
0000
0000
0000
0001
0000
0000
0000
0001
0000
0000
0000
0100
0000
0000
,
0000
0100
0000
0000
0000
0010
0000
0000
0000
0010
0000
0000
0000
1000
0000
0000
,
0000
1000
0000
0000
0000
0001
0000
0000
0000
0001
0000
0000
0000
0010
0000
0000
,
0000
0010
0000
0000
0000
0100
0000
0000
0000
0100
0000
0000
0000
1000
0000
0000
,
0000
1000
0000
0000
0000
0001
0000
0000
0000
0001
0000
0000
0000
0010
0000
0000
,
0000
0010
0000
0000
0000
0001
0000
0000
0000
0001
0000
0000
0000
1000
0000
0000
,
0000
1000
0000
0000
0000
0100
0000
0000
0000
0100
0000
0000
0000
0100
0000
0000
,
0000
0100
0000
0000
0000
0200
0000
0000
0000
0000
0000
0000
0000
0000
0000
0000
,
0000
0000
0000
0000
0000
0000
0000
0000
0000
0000
0000
0000
0300
0001
0000
0000
,
0000
1000
0000
0000
0000
0002
0000
0000
0000
0000
0000
0000
0000
0000
0000
0000
,
0000
0000
0000
0000
0000
0000
0000
0000
0000
0000
0000
0000
0003
0100
0000
0000
,
0000
0010
0000
0000
0000
0200
0000
0000
0000
0000
0000
0000
0000
0000
0000
0000
,
0300
1000
0000
0000
0000
0002
0000
0000
0000
0000
0000
0000
0003
2000
0000
0000
,
0000
0000
0000
0000
3000
0002
0000
0000
0000
0000
0000
0000
0000
0000
0000
0000
,
0000
0000
0000
0000
0000
0000
0000
0000
0000
0000
0000
0000
0003
0020
0000
0000
,
0000
0000
0000
0000
0030
0200
0000
0000
0000
0000
0000
0000
0000
0320
0000
0000
,
0030
0020
0000
0030
0000
0020
0000
0000
0000
0000
0000
0000
0000
2030
0000
0000
,
0000
0000
0000
0000
3000
0002
0000
0000
0000
0000
0000
0000
0000
0000
0000
0000
,
0003
0100
0000
0000
0000
0200
0000
0000
0000
0000
0000
0000
0000
0000
0000
0000
,
0000
0000
0000
0000
0300
0020
0000
0000
0000
0000
0000
0000
0030
1000
0000
0000
,
0000
0001
0000
0000
0000
2000
0000
0000
0000
0000
0000
0000
0000
0000
0000
0000
,
3000
0010
0000
0000
0000
2000
0000
0000
0000
0000
0000
0000
0000
0000
0000
0000
,
0000
0000
0000
3000
0000
0020
0000
0000
0000
0000
0000
0000
0030
1000
0000
0000
,
0000
1000
0000
0000
0000
2000
0000
0000
0000
0000
0000
0000
0000
0000
0000
0000
,
0000
0000
0000
0000
0000
0000
0000
0000
0000
0000
0000
3000
0000
0001
0000
0000
,
0000
0001
0000
0000
0000
0002
0000
0000
0000
0000
0000
0000
0000
0000
0000
0000
,
0000
0000
0000
0000
0000
0000
0000
0000
0000
0000
0003
0000
0000
1000
0000
0000
,
0000
1000
0000
0000
0000
2000
0000
0000
0000
0000
0000
0000
0000
0000
0000
0000
,
3000
0010
0000
0000
0000
0020
0000
0000
0000
0000
0000
0000
0030
0200
0000
0000
,
0000
0000
0000
0000
0300
0002
0000
0000
0000
0000
0000
0000
0000
0000
0000
0000
,
0000
0000
0000
0000
0000
0000
0000
0000
0000
0000
0000
0000
0003
2000
0000
0000
,
0000
0000
0000
0000
3000
0002
0000
0000
0000
0000
0000
0003
0000
2000
0000
0000
,
3000
2000
0000
3000
0000
2000
0000
0000
0000
0000
0000
0000
3000
0200
0000
0000
,
0000
0000
0000
0300
0000
0020
0000
0000
0000
0000
0000
0000
0000
0000
0000
0030
,
0000
0010
0000
0000
0000
2000
0000
0000
0000
0000
0000
0000
0000
0000
0000
0000
,
0000
0000
0000
0000
3000
0010
0000
0000
0000
0000
0000
0000
0000
0100
0000
0000
,
0000
0100
0000
0000
0000
0200
0000
0000
0000
0000
0000
0000
0000
0000
0000
0000
,
0300
0001
0000
0000
0000
0002
0000
0000
0000
0000
0003
2000
0000
0000
0000
0000
,
0000
0000
0000
0000
3000
0020
0000
0000
0000
0000
0000
0000
0000
0230
0000
0000
,
0000
0000
0000
0000
0300
0100
0000
0000
0000
0010
0000
0000
0000
0100
0000
0000
,
0000
0010
0000
0000
0000
1000
0000
0000
0000
0001
0000
0000
0000
1000
0000
0000
,
0000
0001
0000
0010
0000
0001
0000
0000
0000
0001
0000
0000
0000
0010
0000
0000
,
0000
0001
0000
0000
0000
1000
0000
0000
0000
0010
0000
0000
0000
1000
0000
0000
,
0000
0100
0000
0010
0000
0100
0000
0000
0000
0100
0000
0000
0000
0001
0000
0000
,
0000
0100
0000
0000
0000
1000
0000
0000
0000
0100
0000
0000
0000
0001
0000
0000
,
0000
0010
0000
1000
0000
0010
0000
0000
0000
0010
0000
0000
0000
1000
0000
0000
,
0000
1000
0000
0000
0000
1000
0000
0000
0000
0001
0000
0000
0000
0001
0000
0000
,
0000
0001
0000
1000
0000
0001
0000
0000
0000
0010
0000
0000
0000
0100
0000
0000
,
0000
1000
0000
0000
0000
0100
0000
0000
0000
0010
0000
0000
0000
0001
0000
0000
,
0000
0001
0000
1000
0000
0001
0000
0000
0000
0010
0000
0000
0000
0100
0000
0000
,
0000
1000
0000
0000
0000
0001
0000
0000
0000
1000
0000
0000
0000
0001
0000
0000
,
0000
0100
0000
0010
0000
0100
0000
0000
0000
0100
0000
0000
0000
0001
0000
0000
,
0000
0100
0000
0000
0000
1000
0000
0000
0000
0010
0000
0000
0000
1000
0000
0000
,
0000
0010
0000
1000
0000
0010
0000
0000
0000
0010
0000
0000
0000
0100
0000
0000
,
0000
0010
0000
0000
0000
0100
0000
0000
0000
1000
0000
0000
0000
0001
0000
0000
,
0000
0010
0000
1000
0000
0010
0000
0000
0000
0100
0000
0000
0000
1000
0000
0000
,
0000
0010
0000
0000
0000
0100
0000
0000
0000
0001
0000
0000
0000
0100
0000
0000
,
0000
0100
0000
0001
0000
0100
0000
0000
0000
0100
0000
0000
0000
1000
0000
0000
,
0000
0010
0000
0000
0000
0100
0000
0000
0000
0010
0000
0000
0000
1000
0000
0000
,
0000
0001
0000
0100
0000
2000
0000
0000
0000
0000
0000
0000
0000
0000
0000
0000
,
3000
0010
0000
0010
0000
0020
0000
0000
0000
0000
0000
0000
0000
0000
0000
0000
,
0030
1000
0000
1000
0000
2000
0000
0000
0000
0000
3000
0001
0000
2000
0000
0000
,
0000
3002
0000
0000
0000
2003
0000
0000
0000
0000
0000
0000
0000
0000
0000
0000
,
3000
0020
0000
0000
0030
2000
0000
0000
3000
0001
0000
1000
0000
0002
0000
0000
,
0003
0200
0000
0000
0300
0020
0000
0000
0000
0000
0030
1000
0000
2000
0000
0000
,
0000
0000
0000
0000
3000
0001
0000
0000
0000
1000
0000
0001
0000
2000
0000
0000
,
0000
0000
3000
0010
0000
0200
0000
0000
0300
0100
0000
0100
0000
0200
0000
0000
,
0300
1000
0000
0001
0000
1000
0000
0001
0000
1000
0000
0000
0000
0001
0000
0000
,
0000
0001
0000
0000
0000
0010
0000
0000
0000
0010
0000
0000
0000
0001
0000
0000
,
0000
0001
0000
0000
0000
1000
0000
0010
0000
1000
0000
0000
0000
1000
0000
0000
,
0000
0100
0000
0000
0000
0100
0000
0000
0000
1000
0000
0000
0000
0100
0000
0000
,
0000
0001
0000
0000
0000
0010
0000
0100
0000
0010
0000
0000
0000
0100
0000
0000
,
0000
0010
0000
0000
0000
0001
0000
0000
0000
1000
0000
0000
0000
0100
0000
0000
,
0000
0010
0000
0000
0000
0001
0000
1000
0000
0001
0000
0000
0000
0100
0000
0000
,
0000
1000
0000
0000
0000
0100
0000
0000
0000
1000
0000
0000
0000
0100
0000
0000
,
0000
1000
0000
0000
0000
0100
0000
0001
0000
0100
0000
0000
0000
0100
0000
0000
,
0000
1000
0000
0000
0000
0010
0000
0000
0000
0100
0000
0000
0000
0001
0000
0000
,
0000
0100
0000
0000
0000
0010
0000
1000
0000
0010
0000
0000
0000
0100
0000
0000
,
0000
0001
0000
0000
0000
0100
0000
0000
0000
0001
0000
0000
0000
0010
0000
0000
,
0000
0001
0000
0000
0000
0010
0000
1000
0000
0010
0000
0000
0000
0010
0000
0000
,
0000
0100
0000
0000
0000
1000
0000
0000
0000
0001
0000
0000
0000
1000
0000
0000
,
0000
0100
0000
0000
0000
0100
0000
0001
0000
0100
0000
0000
0000
0100
0000
0000
,
0000
0001
0000
0000
0000
0100
0000
0000
0000
0010
0000
0000
0000
0100
0000
0000
,
0000
1000
0000
0000
0000
0001
0000
1000
0000
0001
0000
0000
0000
1000
0000
0000
,
0000
0100
0000
0000
0000
1000
0000
0000
0000
0010
0000
0000
0000
0100
0000
0000
,
0000
0001
0000
0000
0000
0100
0000
0010
0000
0100
0000
0000
0000
1000
0000
0000
,
0000
0010
0000
0000
0000
1000
0000
0000
0000
0100
0000
0000
0000
1000
0000
0000
,
0000
0100
0000
0000
0000
0001
0000
0010
0000
0001
0000
0000
0000
0100
0000
0000
,
0000
0010
0000
0000
0000
0100
0000
0000
0000
1000
0000
0000
0000
0001
0000
0000
,
0000
0100
0000
0000
0000
0001
0000
0010
0000
0001
0000
0000
0000
1000
0000
0000
,
0000
0100
0000
0000
0000
1000
0000
0000
0000
0010
0000
0000
0000
0100
0000
0000
,
0000
0001
0000
0000
0000
0100
0000
0010
0000
0100
0000
0000
0000
1000
0000
0000
,
0000
1000
0000
0000
0000
0001
0000
0000
0000
0001
0000
0000
0000
0010
0000
0000
,
0000
0010
0000
0000
0000
0100
0000
0010
0000
0100
0000
0000
0000
1000
0000
0000
,
0000
0010
0000
0000
0000
1000
0000
0000
0000
0100
0000
0000
0000
0001
0000
0000
,
0000
0100
0000
0000
0000
0010
0000
0100
0000
0010
0000
0000
0000
1000
0000
0000
,
0000
0001
0000
0000
0000
0100
0000
0000
0000
1000
0000
0000
0000
0100
0000
0000
,
0000
0010
0000
0000
0000
1000
0000
0010
0000
1000
0000
0000
0000
0001
0000
0000
,
0000
0100
0000
0000
0000
0010
0000
0000
0000
0100
0000
0000
0000
1000
0000
0000
,
0000
0001
0000
0000
0000
0100
0000
0001
0000
0100
0000
0000
0000
0010
0000
0000
,
0000
0100
0000
0000
0000
0001
0000
0000
0000
1000
0000
0000
0000
0100
0000
0000
,
0000
1000
0000
0000
0000
0010
0000
0100
0000
0010
0000
0000
0000
0100
0000
0000
,
0000
1000
0000
0000
0000
0001
0000
0000
0000
0100
0000
0000
0000
1000
0000
0000
,
0000
0010
0000
0000
0000
0100
0000
0000
0000
0010
0000
2002
0000
3003
0000
0000
;
